You dont have javascript enabled! Please download Google Chrome!

Milky Chance – Sadnecessary (2013) [Deluxe Edition]

milky-chance-sadnecessary-2013-deluxe-edition-flac-lossless

Year Of Release: 2013
Genre: Pop
Format: Flac, Tracks +.cue / 100% log
Bitrate: lossless
Total Size: 292.06 MB


tracklistlatest1

01. Stunner (04:50)
02. Flashed Junk Mind (04:24)
03. Becoming (02:26)
04. Running (04:30)
05. Feathery (Slow Version) (03:18)
06. Indigo (01:28)
07. Sadnecessary (05:00)
08. Down By the River (04:03)
09. Sweet Sun (04:36)
10. Fairytale (04:18)
11. Stolen Dance (05:15)
12. Loveland (Studio Version) (03:38)
13. Feathery (Bonus Track) (04:26)
14. Loveland (Bonus Track) (04:00)

Log
Spoiler:
Exact Audio Copy V1.0 beta 3 from 29. August 2011 EAC extraction logfile from 21. June 2013, 16:42 Milky Chance / sadnecessary Used drive : Optiarc DVD RW AD-7260S Adapter: 0 ID: 1 Read mode : Secure Utilize accurate stream : Yes Defeat audio cache : Yes Make use of C2 pointers : No Read offset correction : 48 Overread into Lead-In and Lead-Out : No Fill up missing offset samples with silence : Yes Delete leading and trailing silent blocks : No Null samples used in CRC calculations : Yes Used interface : Native Win32 interface for Win NT & 2000 Gap handling : Appended to previous track Used output format : User Defined Encoder Selected bitrate : 1024 kBit/s Quality : High Add ID3 tag : No Command line compressor : C:Program Files (x86)FLACflac.exe Additional command line options : -8 -V -T "ARTIST=%artist%" -T "TITLE=%title%" -T "ALBUM=%albumtitle%" -T "DATE=%year%" -T "TRACKNUMBER=%tracknr%" -T "GENRE=%genre%" -T "PERFORMER=%albuminterpret%" -T "COMPOSER=%composer%" %haslyrics%--tag-from-file=LYRICS="%lyricsfile%"%haslyrics% -T "ALBUMARTIST=%albumartist%" -T "DISCNUMBER=%cdnumber%" -T "TOTALDISCS=%totalcds%" -T "TOTALTRACKS=%numtracks%" -T "COMMENT=%comment%" %source% -o %dest% TOC of the extracted CD Track | Start | Length | Start sector | End sector --------------------------------------------------------- 1 | 0:00.00 | 4:50.00 | 0 | 21749 2 | 4:50.00 | 4:24.00 | 21750 | 41549 3 | 9:14.00 | 2:26.00 | 41550 | 52499 4 | 11:40.00 | 4:30.00 | 52500 | 72749 5 | 16:10.00 | 3:18.00 | 72750 | 87599 6 | 19:28.00 | 1:28.00 | 87600 | 94199 7 | 20:56.00 | 5:00.00 | 94200 | 116699 8 | 25:56.00 | 4:03.04 | 116700 | 134928 9 | 29:59.04 | 4:36.00 | 134929 | 155628 10 | 34:35.04 | 4:18.00 | 155629 | 174978 11 | 38:53.04 | 5:15.52 | 174979 | 198655 12 | 44:08.56 | 3:38.00 | 198656 | 215005 13 | 47:46.56 | 4:26.00 | 215006 | 234955 14 | 52:12.56 | 4:00.00 | 234956 | 252955 Track 1 Filename E:Milky Chance - sadnecessary (2013) [FLAC]1 - Stunner.wav Pre-gap length 0:00:02.00 Peak level 95.5 % Extraction speed 2.4 X Track quality 100.0 % Test CRC 5DD40023 Copy CRC 5DD40023 Track not present in AccurateRip database Copy OK Track 2 Filename E:Milky Chance - sadnecessary (2013) [FLAC]2 - Flashed Junk Mind.wav Pre-gap length 0:00:02.00 Peak level 95.5 % Extraction speed 2.7 X Track quality 100.0 % Test CRC 48C3321A Copy CRC 48C3321A Track not present in AccurateRip database Copy OK Track 3 Filename E:Milky Chance - sadnecessary (2013) [FLAC]3 - Becoming.wav Pre-gap length 0:00:02.00 Peak level 95.5 % Extraction speed 2.6 X Track quality 100.0 % Test CRC 6FA15CE6 Copy CRC 6FA15CE6 Track not present in AccurateRip database Copy OK Track 4 Filename E:Milky Chance - sadnecessary (2013) [FLAC]4 - Running.wav Pre-gap length 0:00:02.00 Peak level 95.5 % Extraction speed 3.1 X Track quality 100.0 % Test CRC A7EF3B19 Copy CRC A7EF3B19 Track not present in AccurateRip database Copy OK Track 5 Filename E:Milky Chance - sadnecessary (2013) [FLAC]5 - Feathery (Slow Version).wav Pre-gap length 0:00:02.00 Peak level 95.5 % Extraction speed 3.2 X Track quality 100.0 % Test CRC 0CB46CE3 Copy CRC 0CB46CE3 Track not present in AccurateRip database Copy OK Track 6 Filename E:Milky Chance - sadnecessary (2013) [FLAC]6 - Indigo.wav Pre-gap length 0:00:02.00 Peak level 95.5 % Extraction speed 2.7 X Track quality 100.0 % Test CRC 8149EB0E Copy CRC 8149EB0E Track not present in AccurateRip database Copy OK Track 7 Filename E:Milky Chance - sadnecessary (2013) [FLAC]7 - Sadnecessary.wav Pre-gap length 0:00:02.00 Peak level 95.5 % Extraction speed 3.6 X Track quality 100.0 % Test CRC 21483A9B Copy CRC 21483A9B Track not present in AccurateRip database Copy OK Track 8 Filename E:Milky Chance - sadnecessary (2013) [FLAC]8 - Down By The River.wav Pre-gap length 0:00:02.00 Peak level 95.5 % Extraction speed 3.7 X Track quality 100.0 % Test CRC D49FE093 Copy CRC D49FE093 Track not present in AccurateRip database Copy OK Track 9 Filename E:Milky Chance - sadnecessary (2013) [FLAC]9 - Sweet Sun.wav Pre-gap length 0:00:02.00 Peak level 95.5 % Extraction speed 4.0 X Track quality 100.0 % Test CRC 0125AE2A Copy CRC 0125AE2A Track not present in AccurateRip database Copy OK Track 10 Filename E:Milky Chance - sadnecessary (2013) [FLAC]10 - Fairytale.wav Pre-gap length 0:00:02.00 Peak level 95.5 % Extraction speed 4.1 X Track quality 100.0 % Test CRC A1D0BC5D Copy CRC A1D0BC5D Track not present in AccurateRip database Copy OK Track 11 Filename E:Milky Chance - sadnecessary (2013) [FLAC]11 - Stolen Dance.wav Pre-gap length 0:00:02.00 Peak level 95.5 % Extraction speed 4.0 X Track quality 99.9 % Test CRC 578F4240 Copy CRC 578F4240 Track not present in AccurateRip database Copy OK Track 12 Filename E:Milky Chance - sadnecessary (2013) [FLAC]12 - Loveland (Studio Version).wav Pre-gap length 0:00:02.00 Peak level 95.5 % Extraction speed 4.4 X Track quality 100.0 % Test CRC 17A183BE Copy CRC 17A183BE Track not present in AccurateRip database Copy OK Track 13 Filename E:Milky Chance - sadnecessary (2013) [FLAC]13 - Feathery.wav Pre-gap length 0:00:06.00 Peak level 95.5 % Extraction speed 4.7 X Track quality 100.0 % Test CRC E2C71792 Copy CRC E2C71792 Track not present in AccurateRip database Copy OK Track 14 Filename E:Milky Chance - sadnecessary (2013) [FLAC]14 - Loveland.wav Pre-gap length 0:00:02.00 Peak level 95.5 % Extraction speed 4.2 X Track quality 99.9 % Test CRC 4C46AC81 Copy CRC 4C46AC81 Track not present in AccurateRip database Copy OK None of the tracks are present in the AccurateRip database No errors occurred End of status report ---- CUETools DB Plugin V2.1.3 [CTDB TOCID: mngfvZe333px1URWguxux6BYYYY-] disk not present in database, Submit result: mngfvZe333px1URWguxux6BYYYY- has been uploaded ==== Log checksum 64EEBBED81524260251C81209EAD6E2D9967FF3F2B688E4E7114472D2658AB34 ====
Cue
Spoiler:
REM GENRE Indie REM DATE 2013 REM DISCID BD0D2C0E REM COMMENT "ExactAudioCopy v1.0b3" PERFORMER "Milky Chance" TITLE "sadnecessary" FILE "01 - Stunner.wav" WAVE TRACK 01 AUDIO TITLE "Stunner" PERFORMER "Milky Chance" ISRC DEL211300731 FLAGS DCP INDEX 01 00:00:00 TRACK 02 AUDIO TITLE "Flashed Junk Mind" PERFORMER "Milky Chance" ISRC DEL211300732 FLAGS DCP INDEX 00 04:48:00 FILE "02 - Flashed Junk Mind.wav" WAVE INDEX 01 00:00:00 TRACK 03 AUDIO TITLE "Becoming" PERFORMER "Milky Chance" ISRC DEL211300733 FLAGS DCP INDEX 00 04:22:00 FILE "03 - Becoming.wav" WAVE INDEX 01 00:00:00 TRACK 04 AUDIO TITLE "Running" PERFORMER "Milky Chance" ISRC DEL211300738 FLAGS DCP INDEX 00 02:24:00 FILE "04 - Running.wav" WAVE INDEX 01 00:00:00 TRACK 05 AUDIO TITLE "Feathery (Slow Version)" PERFORMER "Milky Chance" ISRC DEL211300734 FLAGS DCP INDEX 00 04:28:00 FILE "05 - Feathery (Slow Version).wav" WAVE INDEX 01 00:00:00 TRACK 06 AUDIO TITLE "Indigo" PERFORMER "Milky Chance" ISRC DEL211300735 FLAGS DCP INDEX 00 03:16:00 FILE "06 - Indigo.wav" WAVE INDEX 01 00:00:00 TRACK 07 AUDIO TITLE "Sadnecessary" PERFORMER "Milky Chance" ISRC DEL211300736 FLAGS DCP INDEX 00 01:26:00 FILE "07 - Sadnecessary.wav" WAVE INDEX 01 00:00:00 TRACK 08 AUDIO TITLE "Down By The River" PERFORMER "Milky Chance" ISRC DEL211300737 FLAGS DCP INDEX 00 04:58:00 FILE "08 - Down By The River.wav" WAVE INDEX 01 00:00:00 TRACK 09 AUDIO TITLE "Sweet Sun" PERFORMER "Milky Chance" ISRC DEL211300739 FLAGS DCP INDEX 00 04:01:04 FILE "09 - Sweet Sun.wav" WAVE INDEX 01 00:00:00 TRACK 10 AUDIO TITLE "Fairytale" PERFORMER "Milky Chance" ISRC DEL211300740 FLAGS DCP INDEX 00 04:34:00 FILE "10 - Fairytale.wav" WAVE INDEX 01 00:00:00 TRACK 11 AUDIO TITLE "Stolen Dance" PERFORMER "Milky Chance" ISRC DEL211300741 FLAGS DCP INDEX 00 04:16:00 FILE "11 - Stolen Dance.wav" WAVE INDEX 01 00:00:00 TRACK 12 AUDIO TITLE "Loveland (Studio Version)" PERFORMER "Milky Chance" ISRC DEL211300742 FLAGS DCP INDEX 00 05:13:52 FILE "12 - Loveland (Studio Version).wav" WAVE INDEX 01 00:00:00 TRACK 13 AUDIO TITLE "Feathery" PERFORMER "Milky Chance" ISRC DEL211300743 FLAGS DCP INDEX 00 03:32:00 FILE "13 - Feathery.wav" WAVE INDEX 01 00:00:00 TRACK 14 AUDIO TITLE "Loveland" PERFORMER "Milky Chance" ISRC DEL211300783 FLAGS DCP INDEX 00 04:24:00 FILE "14 - Loveland.wav" WAVE INDEX 01 00:00:00

Related posts




  • Leave a Reply

    Be the First to Comment!

    Notify of
    wpDiscuz
    error: Alert: Content is protected !!